2 Chicks Same Time - Jessica Lynn,Madelyn Marie

Joined
May 2, 2014
Messages
174
Likes
0
Points
16
#1





Format : Windows Media
File size : 569 MiB
Duration : 34mn 8s
Overall bit rate mode : Constant
Overall bit rate : 2 330 Kbps
Maximum Overall bit rate : 2 342 Kbps
Encoded date : UTC 2008-10-26 13:30:21.400

Video
ID : 2
Format : VC-1
Format profile : [email protected]
Codec ID : WMV3
Codec ID/Info : Windows Media Video 9
Codec ID/Hint : WMV3
Description of the codec : Windows Media Video 9 - Professional
Duration : 34mn 8s
Bit rate mode : Constant
Bit rate : 2 000 Kbps
Width : 720 pixels
Height : 540 pixels
Display aspect ratio : 4:3
Frame rate : 29.970 fps
Bit depth : 8 bits
Scan type : Progressive
Compression mode : Lossy
Bits/(Pixel*Frame) : 0.172
Stream size : 489 MiB (86%)
Language : English (US)

Audio
ID : 1
Format : WMA
Format version : Version 2
Codec ID : 161
Codec ID/Info : Windows Media Audio
Description of the codec : Windows Media Audio 9.2 - 320 kbps, 44 kHz, stereo (A/V) 1-pass CBR
Duration : 34mn 8s
Bit rate mode : Constant
Bit rate : 320 Kbps
Channel(s) : 2 channels
Sampling rate : 44.1 KHz
Bit depth : 16 bits
Stream size : 78.2 MiB (14%)
Language : English (US)






Download:

Code:
http://www.uploadable.ch/file/hCMD6H5Uc6PJ
 
Do you need premium access to file sharing services?
Buy it directly from Rawporn Forum!!!


Premium access to Keep2Share
Premium access to Fileboom
Premium access to Filejoker
Premium access to Filefox
Premium access to RapidGator
Premium access to File.al
Premium access to Hotlink

With PREMIUM ACCOUNT you will have - unlimited downloads, unlimited space
and incredibly download speed!!!
Make your premium account right now!
THANK YOU VERY MUCH FOR YOUR SUPPORT !!!